<?xml version="1.0" standalone="no"?>
<!DOCTYPE svg PUBLIC "-//W3C//DTD SVG 1.1//EN" "http://www.w3.org/Graphics/SVG/1.1/DTD/svg11.dtd" >
<svg xmlns="http://www.w3.org/2000/svg" xmlns:xlink="http://www.w3.org/1999/xlink" version="1.1">
<metadata></metadata>
<defs>
<font id="korolevbold" horiz-adv-x="564" >
<font-face units-per-em="1000" ascent="800" descent="-200" />
<missing-glyph horiz-adv-x="222" />
<glyph unicode="&#xfb01;" horiz-adv-x="574" d="M82 0v446h-57v116h57v2q0 50 8 83.5t30.5 62t66.5 42.5t111 14q68 0 114 -14t66.5 -38.5t27.5 -47t7 -51.5h-132q0 16 -20.5 29.5t-62.5 13.5q-53 0 -68.5 -20t-15.5 -74v-2h99v-116h-99v-446h-132zM381 0v562h132v-562h-132z" />
<glyph unicode="&#xfb02;" horiz-adv-x="574" d="M82 0v447h-57v115h57q0 54 8 88.5t30.5 62.5t66 40.5t111.5 12.5q69 0 114.5 -17.5t66 -50t27.5 -63.5t7 -74v-561h-132v561q0 21 -0.5 31t-5 25.5t-12.5 22.5t-24.5 12.5t-40.5 5.5q-59 0 -71.5 -18.5t-12.5 -77.5h99v-115h-99v-447h-132z" />
<glyph horiz-adv-x="0" />
<glyph horiz-adv-x="333" />
<glyph unicode=" "  horiz-adv-x="222" />
<glyph unicode="&#x09;" horiz-adv-x="222" />
<glyph unicode="&#xa0;" horiz-adv-x="222" />
<glyph unicode="!" horiz-adv-x="272" d="M49 532q-13 87 -13 102q0 34 21.5 56t57.5 22q37 0 58 -22t21 -56q0 -22 -12 -102l-50 -315h-34zM35 71q0 33 24 56.5t56 23.5q34 0 57.5 -23.5t23.5 -56.5t-23.5 -56t-57.5 -23q-33 0 -56.5 23t-23.5 56z" />
<glyph unicode="&#x22;" horiz-adv-x="440" d="M66 372l-21 333h142l-20 -333h-101zM254 705h141l-21 -333h-101z" />
<glyph unicode="#" horiz-adv-x="713" d="M65 -51l62 240h-77v119h109l24 91h-133v119h164l65 241h126l-65 -241h97l65 241h126l-64 -241h78v-119h-110l-24 -91h134v-119h-165l-63 -240h-126l62 240h-96l-63 -240h-126zM285 308h97l24 91h-97z" />
<glyph unicode="$" horiz-adv-x="543" d="M192 -3q-75 21 -118 82t-44 150h138q0 -112 102 -112q45 0 75 20t30 61q0 17 -8 32t-18 24t-32 19.5t-35.5 15.5t-43.5 15q-37 13 -57.5 21.5t-51.5 26.5t-47.5 37.5t-29.5 51.5t-13 71q0 77 40.5 127t112.5 68v82h51v-72q4 0 14.5 0.5t16.5 0.5q5 0 14.5 -0.5t13.5 -0.5 v72h51v-83q70 -22 110.5 -80.5t41.5 -144.5h-137q0 106 -94 106q-42 0 -70 -19.5t-28 -57.5q0 -18 8 -32.5t18 -24t31 -19.5t35.5 -15t42.5 -14q28 -10 41.5 -14.5t39 -16t39.5 -21t32.5 -25.5t27.5 -33.5t16 -42t7 -53.5q0 -80 -43 -133t-118 -71v-76h-51v67q-5 0 -15 -0.5 t-15 -0.5t-15 0.5t-14 0.5v-67h-51v78z" />
<glyph unicode="%" horiz-adv-x="1159" d="M407 -51l204 810h126l-204 -810h-126zM40 455v40q0 102 53 161t148 59q94 0 147.5 -59.5t53.5 -160.5v-40q0 -104 -53.5 -163.5t-147.5 -59.5q-95 0 -148 59.5t-53 163.5zM165 452q0 -103 76 -103q77 0 77 103v43q0 103 -77 103q-76 0 -76 -103v-43zM701 214v41 q0 102 53 161t148 59q93 0 147.5 -59.5t54.5 -160.5v-41q0 -103 -54 -162.5t-148 -59.5q-95 0 -148 59t-53 163zM825 212q0 -103 77 -103t77 103v43q0 103 -77 103t-77 -103v-43z" />
<glyph unicode="&#x26;" horiz-adv-x="633" d="M285 -14q-120 0 -185 60t-65 163q0 61 31.5 100.5t75.5 52.5q-44 18 -69.5 58.5t-25.5 97.5q0 86 65.5 143t167.5 57q103 0 168 -64.5t65 -170.5h-137q0 55 -26 80.5t-69 25.5q-40 0 -68.5 -19.5t-28.5 -61.5t26.5 -67.5t73.5 -25.5h41v-119h-45q-53 0 -79.5 -22.5 t-26.5 -61.5q0 -47 32.5 -70t79.5 -23t82.5 29t35.5 93v174h200v-126h-64v-28q0 -140 -68.5 -207.5t-186.5 -67.5z" />
<glyph unicode="'" horiz-adv-x="232" d="M65 372l-20 333h142l-21 -333h-101z" />
<glyph unicode="(" horiz-adv-x="312" d="M267 -51q-125 0 -173.5 53.5t-48.5 176.5v349q0 123 48.5 176.5t173.5 53.5v-118q-54 0 -72 -19t-18 -66v-403q0 -48 17.5 -66.5t72.5 -18.5v-118z" />
<glyph unicode=")" horiz-adv-x="312" d="M35 67q55 0 72.5 18.5t17.5 66.5v403q0 47 -18 66t-72 19v118q125 0 173.5 -53.5t48.5 -176.5v-349q0 -123 -48.5 -176.5t-173.5 -53.5v118z" />
<glyph unicode="*" horiz-adv-x="553" d="M220 304l3 130l-118 -69l-47 77l120 64l-120 62l47 79l118 -70l-3 136h94l-6 -135l118 68l50 -78l-123 -62l123 -63l-50 -78l-118 69l6 -130h-94z" />
<glyph unicode="+" horiz-adv-x="553" d="M201 137v157h-156v119h156v156h120v-156h156v-119h-156v-157h-120z" />
<glyph unicode="," horiz-adv-x="280" d="M-5 -129l91 324h142l-132 -324h-101z" />
<glyph unicode="-" horiz-adv-x="340" d="M35 233v103h268v-103h-268z" />
<glyph unicode="." horiz-adv-x="240" d="M120 -8q-33 0 -56.5 23t-23.5 56t23.5 56.5t56.5 23.5q34 0 57 -23.5t23 -56.5t-23 -56t-57 -23z" />
<glyph unicode="/" horiz-adv-x="376" d="M15 -51l212 810h134l-213 -810h-133z" />
<glyph unicode="0" d="M282 -10q-105 0 -171 68t-66 175v240q0 108 66 176.5t171 68.5q104 0 170.5 -68.5t66.5 -176.5v-240q0 -107 -66.5 -175t-170.5 -68zM184 240q0 -118 98 -118q44 0 71.5 27.5t27.5 89.5v228q0 118 -99 118q-98 0 -98 -118v-227z" />
<glyph unicode="1" horiz-adv-x="326" d="M117 517q-31 -13 -82 -13v133q56 0 74.5 14t18.5 54h128v-705h-139v517z" />
<glyph unicode="2" horiz-adv-x="545" d="M35 106q0 39 11.5 72.5t27 56t43 44.5t48 34t53.5 29q40 21 57 31t43 30t36.5 42t10.5 50q0 43 -29 68t-68 25q-42 0 -69.5 -28t-27.5 -77h-136q0 106 65 170.5t167 64.5q104 0 169 -61.5t65 -160.5q0 -24 -3.5 -46t-14 -41t-18 -33.5t-26 -30.5t-27.5 -25t-33.5 -23.5 t-31.5 -19t-35 -19t-32 -16.5q-52 -28 -78.5 -52t-27.5 -58h318v-132h-457v106z" />
<glyph unicode="3" horiz-adv-x="553" d="M277 -11q-108 0 -175 66t-67 178l139 -1q0 -58 30 -85t77 -27q44 0 72 22.5t28 69.5q0 84 -109 84h-78v118h67q110 0 110 88q0 45 -27.5 67.5t-70.5 22.5q-47 0 -71.5 -29t-24.5 -80h-136q0 106 64 170.5t169 64.5q102 0 167.5 -57t65.5 -143q0 -58 -25.5 -98t-70.5 -58 q45 -13 76.5 -51t31.5 -98q0 -101 -67 -162.5t-175 -61.5z" />
<glyph unicode="4" horiz-adv-x="562" d="M323 0v153h-298v126l299 426h133v-426h76v-126h-76v-153h-134zM153 279h170v245z" />
<glyph unicode="5" horiz-adv-x="559" d="M277 -11q-105 0 -171 68t-66 175h138q0 -109 102 -109q41 0 68.5 30.5t27.5 75.5v29q0 42 -27 70t-73 28q-60 0 -92 -57l-132 29l67 377h360v-132h-248l-26 -139q11 13 40 25t67 12q93 0 147.5 -54t54.5 -159v-31q0 -107 -66 -172.5t-171 -65.5z" />
<glyph unicode="6" horiz-adv-x="543" d="M272 -11q-107 0 -172 67t-65 175v32q0 102 58 212l122 230h149l-119 -215q21 4 47 4q102 0 159 -59t57 -164v-40q0 -108 -65.5 -175t-170.5 -67zM174 240q0 -67 25 -93t73 -26q98 0 98 119v36q0 106 -98 106t-98 -106v-36z" />
<glyph unicode="7" horiz-adv-x="478" d="M101 0l186 572h-252v133h428l-224 -705h-138z" />
<glyph unicode="8" horiz-adv-x="553" d="M277 -6q-108 0 -175 54.5t-67 146.5q0 116 100 157q-88 46 -88 163q0 90 63.5 143t166.5 53t166.5 -53t63.5 -144q0 -118 -87 -162q99 -40 99 -157q0 -92 -67.5 -146.5t-174.5 -54.5zM177 209q0 -90 100 -90q101 0 101 94q0 89 -87 89h-32q-82 0 -82 -93zM182 497 q0 -51 24.5 -70t70.5 -19h2q94 0 94 87q0 91 -96 91q-95 0 -95 -89z" />
<glyph unicode="9" horiz-adv-x="543" d="M297 215q-21 -4 -50 -4q-100 0 -156 59.5t-56 163.5v39q0 109 65.5 176t171.5 67t171 -67t65 -176v-34q0 -102 -57 -207l-123 -232h-148zM174 429q0 -105 98 -105t98 105v45q0 110 -98 110t-98 -110v-45z" />
<glyph unicode=":" horiz-adv-x="247" d="M120 408q-33 0 -56.5 23.5t-23.5 55.5q0 33 23.5 56.5t56.5 23.5q34 0 57 -23.5t23 -56.5t-23 -56t-57 -23zM40 71q0 33 23.5 56.5t56.5 23.5q34 0 57 -23.5t23 -56.5t-23 -56t-57 -23q-33 0 -56.5 23t-23.5 56z" />
<glyph unicode=";" horiz-adv-x="276" d="M-5 -129l91 324h142l-132 -324h-101zM61 487q0 33 23 56.5t56 23.5q34 0 57.5 -23.5t23.5 -56.5q0 -32 -23.5 -55.5t-57.5 -23.5q-33 0 -56 23.5t-23 55.5z" />
<glyph unicode="&#x3c;" horiz-adv-x="449" d="M405 71l-360 154v124l360 154v-126l-240 -91l240 -90v-125z" />
<glyph unicode="=" horiz-adv-x="513" d="M45 397v119h396v-119h-396zM45 191v119h396v-119h-396z" />
<glyph unicode="&#x3e;" horiz-adv-x="449" d="M45 71v125l238 90l-238 91v126l360 -153v-124z" />
<glyph unicode="?" horiz-adv-x="505" d="M202 217q-12 37 -12 65q0 38 16 65.5t38 44t44.5 31t38.5 36t16 50.5q0 37 -26.5 58t-69.5 21q-97 0 -97 -105h-135q0 112 62 173.5t170 61.5q102 0 167.5 -55.5t65.5 -137.5q0 -61 -25 -101.5t-60 -60t-70.5 -36t-60.5 -43t-25 -67.5h-37zM141 71q0 33 24 56.5t57 23.5 q34 0 57 -23.5t23 -56.5t-23 -55.5t-57 -22.5q-33 0 -57 22.5t-24 55.5z" />
<glyph unicode="@" horiz-adv-x="697" d="M375 -39q-150 0 -240 73t-90 224v187q0 150 86 225.5t220 75.5t217.5 -75.5t83.5 -225.5v-139q0 -102 -55.5 -144t-188.5 -34v42q-8 -16 -31 -31.5t-58 -15.5q-59 0 -87.5 37t-28.5 121v150q0 148 116 148q36 0 58.5 -16t30.5 -32v43h88v-365q36 0 51.5 19.5t15.5 68.5 v148q0 221 -212 221q-101 0 -158.5 -53.5t-57.5 -167.5v-187q0 -115 62 -166t178 -51h186v-80h-186zM298 277q0 -73 52 -73q53 0 53 73v148q0 72 -53 72q-52 0 -52 -72v-148z" />
<glyph unicode="A" horiz-adv-x="569" d="M5 0l207 705h151l204 -705h-141l-37 139h-205l-39 -139h-140zM213 258h147l-72 276z" />
<glyph unicode="B" horiz-adv-x="565" d="M66 0v705h216q108 0 171 -48.5t63 -143.5v-10q0 -111 -89 -149q96 -42 96 -152v-9q0 -95 -63 -144t-171 -49h-223zM204 131h80q47 0 74.5 17.5t27.5 64.5v11q0 76 -97 76h-85v-169zM204 407h85q90 0 90 80v11q0 75 -102 75h-73v-166z" />
<glyph unicode="C" horiz-adv-x="553" d="M282 -11q-105 0 -171 68t-66 176v242q0 107 66 175t171 68q115 0 176 -70.5t61 -194.5v-2h-138v10q0 125 -99 125q-41 0 -69.5 -25.5t-28.5 -81.5v-250q0 -57 28 -82.5t70 -25.5q50 0 74.5 30t24.5 104v9h138v-4q0 -271 -237 -271z" />
<glyph unicode="D" horiz-adv-x="585" d="M66 0v705h232q108 0 172.5 -66t64.5 -192v-186q0 -125 -64.5 -193t-172.5 -68h-232zM204 131h78q56 0 86 34t30 130v137q0 66 -25 103.5t-91 37.5h-78v-442z" />
<glyph unicode="E" horiz-adv-x="503" d="M66 0v705h396v-133h-258v-160h191v-120h-191v-160h258v-132h-396z" />
<glyph unicode="F" horiz-adv-x="478" d="M66 2v703h380v-133h-242v-160h177v-120h-177v-290h-138z" />
<glyph unicode="G" horiz-adv-x="563" d="M281 -10q-104 0 -170 67.5t-66 175.5v241q0 108 66 176t170 68q103 0 169 -66.5t68 -171.5h-138q0 106 -97 106q-49 0 -74 -29t-25 -97v-232q0 -53 25.5 -79.5t71.5 -26.5q43 0 71 25.5t28 80.5v12h-98v121h236v-128q0 -108 -66 -175.5t-171 -67.5z" />
<glyph unicode="H" horiz-adv-x="598" d="M66 0v705h138v-293h186v293h138v-705h-138v292h-186v-292h-138z" />
<glyph unicode="I" horiz-adv-x="280" d="M71 0v705h138v-705h-138z" />
<glyph unicode="J" horiz-adv-x="553" d="M257 -11q-105 0 -168.5 67.5t-63.5 175.5v31h139v-36q0 -57 27 -81.5t66 -24.5q49 0 71 32.5t22 121.5v430h139v-473q0 -108 -63.5 -175.5t-168.5 -67.5z" />
<glyph unicode="K" horiz-adv-x="579" d="M66 0v705h138v-290h54l138 290h155l-175 -350l175 -355h-155l-138 293h-54v-293h-138z" />
<glyph unicode="L" horiz-adv-x="454" d="M66 0v705h138v-573h234v-132h-372z" />
<glyph unicode="M" horiz-adv-x="721" d="M66 0v705h137l158 -411l157 411h137v-705h-138v407l-110 -275h-94l-109 273v-405h-138z" />
<glyph unicode="N" horiz-adv-x="607" d="M66 0v705h130l207 -410v410h139v-705h-130l-208 408v-408h-138z" />
<glyph unicode="O" d="M282 -10q-105 0 -171 68t-66 175v240q0 108 66 176.5t171 68.5q104 0 170.5 -68.5t66.5 -176.5v-240q0 -107 -66.5 -175t-170.5 -68zM184 229q0 -55 27.5 -81t70.5 -26q41 0 70 25t29 81v250q0 55 -28 81.5t-71 26.5q-42 0 -70 -25.5t-28 -81.5v-250z" />
<glyph unicode="P" horiz-adv-x="569" d="M66 0v705h221q107 0 173 -67.5t66 -188.5v-28q0 -121 -65.5 -187t-173.5 -66h-83v-168h-138zM204 299h69q51 0 84 28.5t33 94.5v26q0 125 -117 125h-69v-274z" />
<glyph unicode="Q" d="M221 -4q-80 17 -128 80t-48 153v244q0 108 66.5 176.5t170.5 68.5q105 0 171 -68.5t66 -176.5v-244q0 -86 -44.5 -148t-118.5 -82l82 -135h-143zM184 248q0 -129 98 -129q99 0 99 128v210q0 129 -99 129q-42 0 -70 -25.5t-28 -81.5v-231z" />
<glyph unicode="R" horiz-adv-x="570" d="M66 0v705h224q108 0 172 -67t64 -188v-20q0 -161 -123 -216l119 -214h-151l-95 182h-72v-182h-138zM204 313h69q116 0 116 119v20q0 121 -116 121h-69v-260z" />
<glyph unicode="S" horiz-adv-x="543" d="M271 -12q-108 0 -174.5 66t-66.5 178h138q0 -59 27.5 -87.5t75.5 -28.5q46 0 73.5 21.5t27.5 63.5q0 14 -4.5 26t-15.5 21.5t-20 16t-29.5 14.5t-31 11.5t-36.5 11.5q-36 12 -57 20.5t-51 26t-46.5 37.5t-29 52.5t-12.5 72.5q0 96 63 151.5t169 55.5q103 0 166.5 -64 t63.5 -172h-136q0 55 -25.5 82.5t-70.5 27.5q-92 0 -92 -81q0 -17 7.5 -31.5t17 -23.5t30 -18.5t34.5 -14t41 -13.5q38 -12 58 -19t52.5 -24.5t49 -37t30 -52.5t13.5 -75q0 -99 -65.5 -156.5t-173.5 -57.5z" />
<glyph unicode="T" horiz-adv-x="462" d="M167 0v572h-147v133h432v-133h-147v-572h-138z" />
<glyph unicode="U" horiz-adv-x="584" d="M292 -10q-106 0 -171 65.5t-65 177.5v472h138v-477q0 -55 27 -81t71 -26q42 0 70.5 26t28.5 81v477h138v-472q0 -111 -65.5 -177t-171.5 -66z" />
<glyph unicode="V" horiz-adv-x="524" d="M194 0l-189 705h141l121 -498l121 498h141l-190 -705h-145z" />
<glyph unicode="W" horiz-adv-x="814" d="M170 0l-165 705h138l103 -480l99 480h124l99 -480l103 480h139l-166 -705h-141l-96 467l-96 -467h-141z" />
<glyph unicode="X" horiz-adv-x="548" d="M5 0l192 362l-183 343h150l108 -223l108 223h148l-183 -343l193 -362h-147l-119 245l-119 -245h-148z" />
<glyph unicode="Y" horiz-adv-x="544" d="M204 0v254l-199 451h144l125 -298l126 298h143l-201 -451v-254h-138z" />
<glyph unicode="Z" horiz-adv-x="468" d="M15 0l242 572h-218v133h408l-242 -573h238v-132h-428z" />
<glyph unicode="[" horiz-adv-x="352" d="M66 -50v808h231v-118h-100v-573h100v-117h-231z" />
<glyph unicode="\" horiz-adv-x="395" d="M217 -51l-212 810h133l213 -810h-134z" />
<glyph unicode="]" horiz-adv-x="352" d="M35 -50v117h100v573h-100v118h232v-808h-232z" />
<glyph unicode="^" horiz-adv-x="505" d="M35 352l155 353h125l156 -353h-128l-92 237l-90 -237h-126z" />
<glyph unicode="_" horiz-adv-x="531" d="M35 -168v103h461v-103h-461z" />
<glyph unicode="`" d="M220 581l-104 157h142l64 -157h-102z" />
<glyph unicode="a" horiz-adv-x="520" d="M208 -9q-79 0 -123.5 51.5t-44.5 156.5v163q0 105 45 156t123 51q54 0 89 -24t45 -46v63h124v-562h-124v62q-9 -22 -44.5 -46.5t-89.5 -24.5zM173 209q0 -101 81 -101q37 0 58.5 25.5t21.5 75.5v145q0 49 -22 73.5t-58 24.5q-81 0 -81 -100v-143z" />
<glyph unicode="b" horiz-adv-x="520" d="M313 -9q-54 0 -89.5 24t-44.5 46v-61h-123v755h131v-244q4 6 13 15.5t41.5 25.5t71.5 16q79 0 124 -51t45 -155v-164q0 -105 -45 -156t-124 -51zM187 208q0 -50 22 -75.5t59 -25.5t59 25.5t22 75.5v143q0 50 -21.5 75t-59.5 25q-37 0 -59 -24.5t-22 -72.5v-146z" />
<glyph unicode="c" horiz-adv-x="500" d="M254 -10q-101 0 -157.5 59t-56.5 161v136q0 104 56.5 163.5t157.5 59.5q103 0 157.5 -59.5t54.5 -167.5v-4h-132v3q0 109 -80 109q-82 0 -82 -97v-132q0 -113 82 -113q36 0 58 26.5t22 79.5v4h132v-4q0 -106 -55 -165t-157 -59z" />
<glyph unicode="d" horiz-adv-x="520" d="M209 -9q-79 0 -124 51t-45 156v164q0 104 45 155t124 51q25 0 46.5 -6t35 -14t24 -16.5t14.5 -14.5l4 -6v244h134v-755h-124v61q-9 -22 -44.5 -46t-89.5 -24zM173 208q0 -50 22 -75.5t60 -25.5q37 0 58.5 25.5t21.5 75.5v146q0 48 -22 72.5t-58 24.5q-39 0 -60.5 -25 t-21.5 -75v-143z" />
<glyph unicode="e" horiz-adv-x="500" d="M254 -10q-101 0 -157.5 59t-56.5 161v137q0 103 56.5 162.5t157.5 59.5q100 0 156 -57t56 -160v-110h-294v-61q0 -36 24.5 -60t57.5 -24q34 0 57 19t23 52v12h132v-4q0 -80 -57.5 -133t-154.5 -53zM172 334h162v27q0 100 -80 100q-37 0 -59.5 -21.5t-22.5 -64.5v-41z" />
<glyph unicode="f" horiz-adv-x="344" d="M82 0v447h-57v115h57q0 120 53 162t179 31v-113q-57 9 -78.5 -9t-21.5 -71h99v-115h-99v-447h-132z" />
<glyph unicode="g" horiz-adv-x="520" d="M255 -215q-208 0 -208 168h128q0 -30 20.5 -48t59.5 -18q79 0 79 77v98q-6 -13 -17.5 -27t-41 -28.5t-67.5 -14.5q-79 0 -123.5 51t-44.5 156v163q0 103 44 154.5t120 51.5q55 0 92 -23.5t46 -45.5v63h124v-569q0 -106 -47 -157t-164 -51zM173 224q0 -63 19.5 -90.5 t61.5 -27.5q40 0 60 27.5t20 88.5v123q0 107 -80 107q-81 0 -81 -100v-128z" />
<glyph unicode="h" horiz-adv-x="525" d="M56 0v755h131v-247q4 7 13.5 17t43 27t73.5 17q165 0 165 -202v-367h-133v317q0 74 -16.5 104t-64.5 30q-42 0 -61.5 -23.5t-19.5 -77.5v-350h-131z" />
<glyph unicode="i" horiz-adv-x="250" d="M59 0v562h131v-562h-131zM45 709q0 33 23.5 56.5t56.5 23.5q34 0 57 -23.5t23 -56.5t-23 -56t-57 -23q-33 0 -56.5 23t-23.5 56z" />
<glyph unicode="j" horiz-adv-x="254" d="M-8 -93q36 0 53 18.5t17 66.5v570h131v-543q0 -118 -47.5 -174t-153.5 -56v118zM47 709q0 33 23.5 56.5t56.5 23.5q34 0 57.5 -23.5t23.5 -56.5t-23.5 -56t-57.5 -23q-33 0 -56.5 23t-23.5 56z" />
<glyph unicode="k" horiz-adv-x="522" d="M56 0v755h132v-421h44l113 228h150l-154 -280l155 -282h-150l-114 226h-44v-226h-132z" />
<glyph unicode="l" horiz-adv-x="254" d="M61 0v759h132v-759h-132z" />
<glyph unicode="m" horiz-adv-x="765" d="M56 0v562h123v-58q5 11 16 23.5t38.5 26.5t62.5 14q94 0 133 -77q15 30 51.5 53.5t88.5 23.5q150 0 150 -197v-371h-132v376q0 40 -18.5 58.5t-48.5 18.5q-28 0 -47.5 -19t-19.5 -56v-378h-132v376q0 77 -67 77q-29 0 -48 -18.5t-19 -56.5v-378h-131z" />
<glyph unicode="n" horiz-adv-x="525" d="M56 0v562h123v-64q9 21 44.5 45.5t89.5 24.5q79 0 124 -51t45 -155v-362h-133v352q0 99 -81 99q-41 0 -61 -24t-20 -77v-350h-131z" />
<glyph unicode="o" horiz-adv-x="504" d="M252 -10q-101 0 -157 59.5t-56 163.5v135q0 101 56 160.5t157 59.5q99 0 156 -59.5t57 -160.5v-135q0 -104 -56.5 -163.5t-156.5 -59.5zM171 194q0 -43 22.5 -65t58.5 -22q35 0 58 22t23 65v170q0 43 -22.5 64.5t-58.5 21.5q-37 0 -59 -21.5t-22 -64.5v-170z" />
<glyph unicode="p" horiz-adv-x="525" d="M56 -197v759h123v-61q9 22 44.5 46t89.5 24q79 0 124 -51t45 -156v-164q0 -104 -45 -155t-124 -51q-25 0 -46.5 6t-35 14t-24 16.5t-14.5 14.5l-4 6v-248h-133zM187 208q0 -48 22 -72.5t59 -24.5q38 0 59.5 25t21.5 75v143q0 50 -22 75.5t-59 25.5t-59 -25.5t-22 -75.5 v-146z" />
<glyph unicode="q" horiz-adv-x="525" d="M337 51q-4 -6 -12.5 -15.5t-40.5 -25.5t-71 -16q-79 0 -124 51t-45 155v164q0 105 45 156t124 51q54 0 89.5 -24t44.5 -46v61h124v-759h-134v248zM177 211q0 -50 21.5 -75t60.5 -25q36 0 58 24.5t22 72.5v146q0 50 -21.5 75.5t-58.5 25.5q-38 0 -60 -25.5t-22 -75.5v-143 z" />
<glyph unicode="r" horiz-adv-x="361" d="M56 0v562h123v-76q11 45 54.5 66.5t94.5 15.5v-129q-141 11 -141 -130v-309h-131z" />
<glyph unicode="s" horiz-adv-x="495" d="M249 -11q-102 0 -160.5 52.5t-58.5 146.5h132q0 -44 23.5 -66t63.5 -22q37 0 58.5 17.5t21.5 42.5q0 26 -29.5 43t-71.5 28.5t-84 28t-71.5 52.5t-29.5 91q0 77 53 121.5t147 44.5q104 0 158.5 -48.5t54.5 -143.5h-129q0 44 -21.5 62t-61.5 18q-34 0 -52.5 -14t-18.5 -40 q0 -24 21.5 -41t53.5 -25.5t69.5 -22t69.5 -29t53.5 -48t21.5 -78.5q0 -80 -55 -125t-158 -45z" />
<glyph unicode="t" horiz-adv-x="355" d="M318 -5q-128 -15 -182.5 36t-54.5 177v239h-55l-1 106q56 0 77.5 27t21.5 96h88v-114h104v-115h-104v-242q0 -61 22.5 -81.5t83.5 -11.5v-117z" />
<glyph unicode="u" horiz-adv-x="515" d="M259 -10q-101 0 -157.5 58.5t-56.5 158.5v355h132v-374q0 -40 24.5 -60.5t57.5 -20.5q29 0 54.5 20.5t25.5 60.5v374h133v-355q0 -100 -57.5 -158.5t-155.5 -58.5z" />
<glyph unicode="v" horiz-adv-x="490" d="M175 0l-170 562h141l99 -381l98 381h142l-170 -562h-140z" />
<glyph unicode="w" horiz-adv-x="727" d="M153 0l-148 562h135l83 -363l83 363h115l83 -364l85 364h134l-148 -562h-132l-79 350l-80 -350h-131z" />
<glyph unicode="x" horiz-adv-x="526" d="M10 0l176 289l-166 273h149l90 -163l88 163h150l-166 -273l176 -289h-147l-102 181l-101 -181h-147z" />
<glyph unicode="y" horiz-adv-x="489" d="M117 -197l62 198l-174 561h141l100 -374l100 374h141l-236 -759h-134z" />
<glyph unicode="z" horiz-adv-x="429" d="M15 0l209 444h-189v118h375l-209 -445h202v-117h-388z" />
<glyph unicode="{" horiz-adv-x="355" d="M301 -52q-118 0 -167 53.5t-49 175.5v63q0 32 -12 44.5t-48 12.5v110q35 0 47.5 13t12.5 45v63q0 122 49 176t167 54v-118q-51 0 -68 -23.5t-17 -77.5v-26q0 -67 -18.5 -108.5t-69.5 -53.5q51 -12 69.5 -44t18.5 -83v-26q0 -68 16 -100.5t69 -32.5v-117z" />
<glyph unicode="|" horiz-adv-x="254" d="M61 -51v810h132v-810h-132z" />
<glyph unicode="}" horiz-adv-x="355" d="M35 65q53 0 69 32.5t16 100.5v26q0 51 18.5 83t69.5 44q-51 12 -69.5 53.5t-18.5 108.5v26q0 54 -17 77.5t-68 23.5v118q118 0 167 -54t49 -176v-63q0 -32 12.5 -45t47.5 -13v-110q-36 0 -48 -12.5t-12 -44.5v-63q0 -122 -49 -175.5t-167 -53.5v117z" />
<glyph unicode="&#xa1;" horiz-adv-x="240" d="M119 -8q-35 0 -57 22t-22 55q0 23 14 103l48 315h34l50 -315q12 -80 12 -103q0 -33 -21.5 -55t-57.5 -22zM40 633q0 32 23.5 55.5t56.5 23.5q34 0 57 -23t23 -56t-23 -56.5t-57 -23.5q-33 0 -56.5 23.5t-23.5 56.5z" />
<glyph unicode="&#xa2;" horiz-adv-x="500" d="M172 2q-64 21 -98 75t-34 133v136q0 80 34 134.5t98 74.5v84h51v-72q18 2 31 2q10 0 28 -2v72h51v-83q133 -42 133 -216v-3h-132v3q0 109 -80 109q-82 0 -82 -97v-132q0 -113 82 -113q36 0 58 26.5t22 79.5v4h132v-4q0 -170 -133 -212v-82h-51v73q-18 -2 -28 -2 q-13 0 -31 2v-73h-51v83z" />
<glyph unicode="&#xa3;" horiz-adv-x="544" d="M45 0v132h171q-3 51 -42 115h-129v51h103q-24 38 -35 58h-68v51h48q-18 50 -18 97q0 98 61 156t160 58q97 0 157.5 -64.5t60.5 -170.5h-133q0 105 -85 105q-39 0 -62 -21t-23 -65q0 -45 24 -95h163v-51h-139q3 -6 14 -26t17 -32h108v-51h-90q33 -63 35 -115h155v-132 h-453z" />
<glyph unicode="&#xa5;" horiz-adv-x="544" d="M204 0v95h-80v50h80v59h-80v50h80l-199 451h144l125 -299l126 299h143l-201 -451h80v-50h-80v-59h79v-50h-79v-95h-138z" />
<glyph unicode="&#xa6;" horiz-adv-x="254" d="M61 -51v353h132v-353h-132zM61 410v349h132v-349h-132z" />
<glyph unicode="&#xa7;" horiz-adv-x="502" d="M249 -120q-102 0 -160.5 52.5t-58.5 146.5h132q0 -44 23.5 -66t63.5 -22q37 0 58.5 17.5t21.5 42.5q0 26 -29.5 43t-71.5 28.5t-84 28t-71.5 52.5t-29.5 91q0 85 69 128q-75 38 -75 122q0 80 55 125t158 45q102 0 160.5 -52.5t58.5 -146.5h-132q0 44 -23.5 66t-63.5 22 q-37 0 -58.5 -17.5t-21.5 -42.5q0 -26 29.5 -43t71.5 -28.5t84 -28t71.5 -52.5t29.5 -91q0 -85 -69 -128q75 -38 75 -122q0 -80 -55 -125t-158 -45zM175 297q0 -23 19 -38t56 -15q36 0 55 15t19 38q0 22 -19 37t-55 15q-37 0 -56 -14.5t-19 -37.5z" />
<glyph unicode="&#xa8;" d="M353 577q-25 0 -42.5 18t-17.5 43t17.5 43t42.5 18q26 0 44 -18t18 -43q0 -26 -18 -43.5t-44 -17.5zM109 638q0 25 18 43t43 18t43 -18t18 -43q0 -26 -17.5 -43.5t-43.5 -17.5t-43.5 17.5t-17.5 43.5z" />
<glyph unicode="&#xa9;" horiz-adv-x="699" d="M351 -46q-141 0 -223.5 81t-82.5 223v187q0 143 83 227t223 84q141 0 222 -84t81 -227v-187q0 -142 -80.5 -223t-222.5 -81zM136 258q0 -217 216 -217q212 0 212 217v187q0 221 -212 221q-101 0 -158.5 -53.5t-57.5 -167.5v-187zM197 263v175q0 75 39.5 117.5t112.5 42.5 t113 -41t40 -115v-22h-97v31q0 32 -16.5 46t-39.5 14q-55 0 -55 -66v-193q0 -28 15.5 -42.5t39.5 -14.5q56 0 56 56v35h97v-26q0 -73 -40 -113t-113 -40t-112.5 41.5t-39.5 114.5z" />
<glyph unicode="&#xaa;" horiz-adv-x="525" d="M211 234q-79 0 -122.5 51.5t-43.5 156.5v64q0 103 43 154.5t118 51.5q55 0 91.5 -23.5t44.5 -45.5v63h124v-463h-124v62q-10 -23 -43.5 -47t-87.5 -24zM177 71q0 33 23 56.5t57 23.5q33 0 56.5 -23.5t23.5 -56.5t-23.5 -56t-56.5 -23q-34 0 -57 23t-23 56zM178 442 q0 -91 79 -91q36 0 56.5 22.5t20.5 68.5v66q0 44 -21 66t-56 22q-79 0 -79 -90v-64z" />
<glyph unicode="&#xab;" horiz-adv-x="526" d="M167 83l-132 203l132 203h101l-91 -203l91 -203h-101zM258 286l132 203h101l-92 -203l92 -203h-101z" />
<glyph unicode="&#xad;" horiz-adv-x="340" d="M35 233v103h268v-103h-268z" />
<glyph unicode="&#xae;" horiz-adv-x="699" d="M351 -46q-141 0 -223.5 81t-82.5 223v187q0 143 83 227t223 84q141 0 222 -84t81 -227v-187q0 -142 -80.5 -223t-222.5 -81zM135 258q0 -217 216 -217q212 0 212 217v187q0 221 -212 221q-101 0 -158.5 -53.5t-57.5 -167.5v-187zM208 131v444h131q78 0 119.5 -44 t41.5 -126v-6q0 -109 -85 -142l82 -126h-104l-63 105h-29v-105h-93zM301 323h31q37 0 56 17t19 61v5q0 44 -19 62.5t-56 18.5h-31v-164z" />
<glyph unicode="&#xaf;" d="M137 584v93h286v-93h-286z" />
<glyph unicode="&#xb0;" horiz-adv-x="398" d="M200 388q-74 0 -114.5 43t-40.5 119v5q0 74 40.5 117t114.5 43q72 0 113.5 -43t41.5 -117v-5q0 -76 -41 -119t-114 -43zM141 536q0 -31 16.5 -46.5t42.5 -15.5q25 0 42 16t17 46v31q0 31 -16.5 46.5t-42.5 15.5t-42.5 -15.5t-16.5 -46.5v-31z" />
<glyph unicode="&#xb4;" d="M210 581l64 157h142l-105 -157h-101z" />
<glyph unicode="&#xb6;" horiz-adv-x="385" d="M200 380h-49q-46 0 -73.5 29t-27.5 86v99q0 38 9 61.5t29 33.5t38.5 13t49.5 3h148v-755h-124v430z" />
<glyph unicode="&#xb7;" horiz-adv-x="240" d="M120 206q-33 0 -56.5 23.5t-23.5 55.5q0 33 23.5 56.5t56.5 23.5q34 0 57 -23.5t23 -56.5t-23 -56t-57 -23z" />
<glyph unicode="&#xb8;" d="M137 -171l107 196h79l-44 -196h-142z" />
<glyph unicode="&#xba;" horiz-adv-x="505" d="M250 232q-100 0 -155 59.5t-55 163.5v40q0 102 55 161t155 59t155.5 -59t55.5 -161v-40q0 -104 -55.5 -163.5t-155.5 -59.5zM171 71q0 33 23 56.5t56 23.5q34 0 57.5 -23.5t23.5 -56.5t-23.5 -56t-57.5 -23q-33 0 -56 23t-23 56zM172 436q0 -43 21.5 -65t56.5 -22 q36 0 57.5 22t21.5 65v76q0 43 -21.5 64.5t-57.5 21.5t-57 -21.5t-21 -64.5v-76z" />
<glyph unicode="&#xbb;" horiz-adv-x="526" d="M35 83l91 203l-91 203h101l133 -203l-133 -203h-101zM258 83l90 203l-90 203h101l132 -203l-132 -203h-101z" />
<glyph unicode="&#xbc;" horiz-adv-x="726" d="M552 0v86h-181v79l190 259h85v-248h51v-90h-51v-86h-94zM35 576v90q36 -1 45 6t8 33h87v-399h-93v275q-16 -5 -47 -5zM125 0l288 705h101l-289 -705h-100zM477 176h75v104z" />
<glyph unicode="&#xbd;" horiz-adv-x="734" d="M82 581q-16 -5 -47 -5v90q36 -1 45 6t8 33h87v-399h-93v275zM122 0l288 705h101l-289 -705h-100zM420 -5v67q0 37 18 65.5t36 41t49 29.5q20 10 29.5 15.5t22 15t17.5 19.5t5 23q0 17 -11.5 28t-30.5 11q-43 0 -42 -49h-93q-4 61 32.5 100.5t102.5 39.5q60 0 97.5 -36 t37.5 -94q0 -13 -2.5 -24.5t-5.5 -21t-9.5 -19t-11 -16t-14.5 -14.5l-15 -12t-17 -11.5t-16 -9.5t-17.5 -9t-15.5 -8q-43 -25 -49 -40h168v-91h-265z" />
<glyph unicode="&#xbe;" horiz-adv-x="834" d="M660 -11v86h-181v79l190 259h85v-248h51v-90h-51v-86h-94zM35 438l96 -1q-1 -29 11 -41t41 -12q47 0 47 43q0 37 -53 37h-49v81h43q54 0 54 40q0 42 -47 42q-46 0 -44 -54h-95q-3 61 36.5 100.5t103.5 39.5q61 0 101 -33.5t40 -85.5q0 -57 -50 -85q54 -23 54 -82 t-39.5 -95.5t-104.5 -36.5q-69 0 -108.5 38.5t-36.5 104.5zM239 0l288 705h101l-289 -705h-100zM585 165h75v104z" />
<glyph unicode="&#xbf;" horiz-adv-x="505" d="M257 -9q-102 0 -167 55.5t-65 137.5q0 52 18 89t44.5 55.5t57.5 35.5t57.5 30t44.5 38t18 60h37q11 -36 11 -68q0 -37 -15.5 -64t-38 -43t-45 -31t-38 -36.5t-15.5 -49.5q0 -37 26.5 -58t69.5 -21t69.5 26t26.5 78h137q0 -111 -62.5 -172.5t-170.5 -61.5zM203 638 q0 33 23 56t57 23q33 0 56.5 -23t23.5 -56t-24 -56.5t-56 -23.5q-34 0 -57 23.5t-23 56.5z" />
<glyph unicode="&#xc0;" horiz-adv-x="569" d="M5 0l207 705h151l204 -705h-141l-37 139h-205l-39 -139h-140zM132 938h142l64 -157h-102zM213 258h147l-72 276z" />
<glyph unicode="&#xc1;" horiz-adv-x="569" d="M5 0l207 705h151l204 -705h-141l-37 139h-205l-39 -139h-140zM213 258h147l-72 276zM228 781l64 157h142l-105 -157h-101z" />
<glyph unicode="&#xc2;" horiz-adv-x="569" d="M5 0l207 705h151l204 -705h-141l-37 139h-205l-39 -139h-140zM118 762l103 155h128l103 -155h-103l-64 75l-65 -75h-102zM213 258h147l-72 276z" />
<glyph unicode="&#xc3;" horiz-adv-x="569" d="M5 0l207 705h151l204 -705h-141l-37 139h-205l-39 -139h-140zM117 778v105q46 27 91 27q27 0 76 -14t75 -14q49 0 94 29v-104q-44 -31 -89 -31q-27 0 -75.5 16.5t-77.5 16.5q-47 0 -94 -31zM213 258h147l-72 276z" />
<glyph unicode="&#xc4;" horiz-adv-x="569" d="M5 0l207 705h151l204 -705h-141l-37 139h-205l-39 -139h-140zM135 838q0 25 18 43t43 18t43 -18t18 -43q0 -26 -17.5 -43.5t-43.5 -17.5t-43.5 17.5t-17.5 43.5zM213 258h147l-72 276zM319 838q0 25 17.5 43t42.5 18q26 0 44 -18t18 -43q0 -26 -18 -43.5t-44 -17.5 q-25 0 -42.5 18t-17.5 43z" />
<glyph unicode="&#xc5;" horiz-adv-x="569" d="M5 0l207 705h151l204 -705h-141l-37 139h-205l-39 -139h-140zM198 868q0 38 26.5 64t64.5 26t64.5 -26.5t26.5 -63.5q0 -38 -27 -64.5t-64 -26.5q-38 0 -64.5 26.5t-26.5 64.5zM213 258h147l-72 276zM260 869q0 -12 9 -20.5t21 -8.5q11 0 19 8.5t8 20.5t-8 20t-19 8 q-12 0 -21 -8t-9 -20z" />
<glyph unicode="&#xc6;" horiz-adv-x="871" d="M5 0l389 705h435v-133h-257v-160h191v-120h-191v-160h257v-132h-396v139h-199l-74 -139h-155zM291 258h141v263z" />
<glyph unicode="&#xc7;" horiz-adv-x="553" d="M149 -171l89 163q-87 14 -140 79.5t-53 161.5v242q0 107 66 175t171 68q115 0 176 -70.5t61 -194.5v-2h-138v10q0 125 -99 125q-41 0 -69.5 -25.5t-28.5 -81.5v-250q0 -57 28 -82.5t70 -25.5q50 0 74.5 30t24.5 104v9h138v-4q0 -243 -191 -268l-37 -163h-142z" />
<glyph unicode="&#xc8;" horiz-adv-x="503" d="M66 0v705h396v-133h-258v-160h191v-120h-191v-160h258v-132h-396zM117 938h142l64 -157h-102z" />
<glyph unicode="&#xc9;" horiz-adv-x="503" d="M66 0v705h396v-133h-258v-160h191v-120h-191v-160h258v-132h-396zM186 781l64 157h142l-105 -157h-101z" />
<glyph unicode="&#xca;" horiz-adv-x="503" d="M66 0v705h396v-133h-258v-160h191v-120h-191v-160h258v-132h-396zM95 782l103 155h128l103 -155h-103l-64 75l-65 -75h-102z" />
<glyph unicode="&#xcb;" horiz-adv-x="503" d="M66 0v705h396v-133h-258v-160h191v-120h-191v-160h258v-132h-396zM107 838q0 25 18 43t43 18t43 -18t18 -43q0 -26 -17.5 -43.5t-43.5 -17.5t-43.5 17.5t-17.5 43.5zM291 838q0 25 17.5 43t42.5 18q26 0 44 -18t18 -43q0 -26 -18 -43.5t-44 -17.5q-25 0 -42.5 18 t-17.5 43z" />
<glyph unicode="&#xcc;" horiz-adv-x="272" d="M71 0v705h138v-705h-138zM-8 938h142l64 -157h-102z" />
<glyph unicode="&#xcd;" horiz-adv-x="281" d="M71 0v705h138v-705h-138zM69 781l64 157h142l-105 -157h-101z" />
<glyph unicode="&#xce;" horiz-adv-x="273" d="M71 0v705h138v-705h-138zM-13 782l103 155h128l103 -155h-103l-64 75l-65 -75h-102z" />
<glyph unicode="&#xcf;" horiz-adv-x="269" d="M71 0v705h138v-705h-138zM-11 838q0 25 18 43t43 18t43 -18t18 -43q0 -26 -17.5 -43.5t-43.5 -17.5t-43.5 17.5t-17.5 43.5zM173 838q0 25 17.5 43t42.5 18q26 0 44 -18t18 -43q0 -26 -18 -43.5t-44 -17.5q-25 0 -42.5 18t-17.5 43z" />
<glyph unicode="&#xd0;" horiz-adv-x="582" d="M63 0v330h-61v49h61v326h232q108 0 172.5 -66t64.5 -192v-186q0 -125 -64.5 -193t-172.5 -68h-232zM201 131h78q56 0 86 34t30 130v137q0 66 -25 103.5t-91 37.5h-78v-194h78v-49h-78v-199z" />
<glyph unicode="&#xd1;" horiz-adv-x="608" d="M136 883q46 27 91 27q27 0 76 -14t75 -14q49 0 94 29v-104q-44 -31 -89 -31q-27 0 -75.5 16.5t-77.5 16.5q-47 0 -94 -31v105zM66 0v705h130l207 -410v410h139v-705h-130l-208 408v-408h-138z" />
<glyph unicode="&#xd2;" d="M282 -10q-105 0 -171 68t-66 175v240q0 108 66 176.5t171 68.5q104 0 170.5 -68.5t66.5 -176.5v-240q0 -107 -66.5 -175t-170.5 -68zM126 938h142l64 -157h-102zM184 229q0 -55 27.5 -81t70.5 -26q41 0 70 25t29 81v250q0 55 -28 81.5t-71 26.5q-42 0 -70 -25.5 t-28 -81.5v-250z" />
<glyph unicode="&#xd3;" horiz-adv-x="558" d="M282 -10q-105 0 -171 68t-66 175v240q0 108 66 176.5t171 68.5q104 0 170.5 -68.5t66.5 -176.5v-240q0 -107 -66.5 -175t-170.5 -68zM184 229q0 -55 27.5 -81t70.5 -26q41 0 70 25t29 81v250q0 55 -28 81.5t-71 26.5q-42 0 -70 -25.5t-28 -81.5v-250zM219 781l64 157h142 l-105 -157h-101z" />
<glyph unicode="&#xd4;" d="M282 -10q-105 0 -171 68t-66 175v240q0 108 66 176.5t171 68.5q104 0 170.5 -68.5t66.5 -176.5v-240q0 -107 -66.5 -175t-170.5 -68zM115 782l103 155h128l103 -155h-103l-64 75l-65 -75h-102zM184 229q0 -55 27.5 -81t70.5 -26q41 0 70 25t29 81v250q0 55 -28 81.5 t-71 26.5q-42 0 -70 -25.5t-28 -81.5v-250z" />
<glyph unicode="&#xd5;" d="M282 -10q-105 0 -171 68t-66 175v240q0 108 66 176.5t171 68.5q104 0 170.5 -68.5t66.5 -176.5v-240q0 -107 -66.5 -175t-170.5 -68zM115 778v105q46 27 91 27q27 0 76 -14t75 -14q49 0 94 29v-104q-44 -31 -89 -31q-27 0 -75.5 16.5t-77.5 16.5q-47 0 -94 -31zM184 229 q0 -55 27.5 -81t70.5 -26q41 0 70 25t29 81v250q0 55 -28 81.5t-71 26.5q-42 0 -70 -25.5t-28 -81.5v-250z" />
<glyph unicode="&#xd6;" d="M282 -10q-105 0 -171 68t-66 175v240q0 108 66 176.5t171 68.5q104 0 170.5 -68.5t66.5 -176.5v-240q0 -107 -66.5 -175t-170.5 -68zM128 838q0 25 18 43t43 18t43 -18t18 -43q0 -26 -18 -43.5t-43 -17.5t-43 17.5t-18 43.5zM184 229q0 -55 27.5 -81t70.5 -26q41 0 70 25 t29 81v250q0 55 -28 81.5t-71 26.5q-42 0 -70 -25.5t-28 -81.5v-250zM312 838q0 25 17.5 43t42.5 18q26 0 44 -18t18 -43q0 -26 -18 -43.5t-44 -17.5q-25 0 -42.5 18t-17.5 43z" />
<glyph unicode="&#xd7;" horiz-adv-x="527" d="M366 154l-119 116l-117 -116l-85 85l118 116l-118 116l85 85l117 -117l118 117l85 -85l-118 -116l118 -116z" />
<glyph unicode="&#xd8;" d="M114 -78l35 105q-49 31 -76.5 84.5t-27.5 121.5v240q0 108 66 176.5t171 68.5q50 0 93 -17l29 88h51l-37 -111q48 -32 74.5 -85t26.5 -120v-240q0 -107 -66.5 -175t-170.5 -68q-48 0 -88 15l-27 -83h-53zM184 229q0 -36 13 -60l135 406q-21 11 -50 11q-42 0 -70 -25.5 t-28 -81.5v-250zM236 131q21 -9 46 -9q41 0 70 25t29 81v250q0 32 -11 56z" />
<glyph unicode="&#xd9;" horiz-adv-x="584" d="M292 -10q-106 0 -171 65.5t-65 177.5v472h138v-477q0 -55 27 -81t71 -26q42 0 70.5 26t28.5 81v477h138v-472q0 -111 -65.5 -177t-171.5 -66zM147 938h142l64 -157h-102z" />
<glyph unicode="&#xda;" horiz-adv-x="584" d="M292 -10q-106 0 -171 65.5t-65 177.5v472h138v-477q0 -55 27 -81t71 -26q42 0 70.5 26t28.5 81v477h138v-472q0 -111 -65.5 -177t-171.5 -66zM244 781l64 157h142l-105 -157h-101z" />
<glyph unicode="&#xdb;" horiz-adv-x="584" d="M292 -10q-106 0 -171 65.5t-65 177.5v472h138v-477q0 -55 27 -81t71 -26q42 0 70.5 26t28.5 81v477h138v-472q0 -111 -65.5 -177t-171.5 -66zM125 782l103 155h128l103 -155h-103l-64 75l-65 -75h-102z" />
<glyph unicode="&#xdc;" horiz-adv-x="584" d="M292 -10q-106 0 -171 65.5t-65 177.5v472h138v-477q0 -55 27 -81t71 -26q42 0 70.5 26t28.5 81v477h138v-472q0 -111 -65.5 -177t-171.5 -66zM140 838q0 25 18 43t43 18t43 -18t18 -43q0 -26 -18 -43.5t-43 -17.5t-43 17.5t-18 43.5zM324 838q0 25 17.5 43t42.5 18 q26 0 44 -18t18 -43q0 -26 -18 -43.5t-44 -17.5q-25 0 -42.5 18t-17.5 43z" />
<glyph unicode="&#xdd;" horiz-adv-x="545" d="M204 0v254l-199 451h144l125 -298l126 298h143l-201 -451v-254h-138zM224 781l64 157h142l-105 -157h-101z" />
<glyph unicode="&#xde;" horiz-adv-x="566" d="M66 0v705h138v-79h87q106 0 170.5 -67.5t64.5 -188.5v-28q0 -121 -64 -187t-171 -66h-87v-89h-138zM204 220h69q51 0 84 28.5t33 94.5v26q0 75 -37 100t-103 25h-46v-274z" />
<glyph unicode="&#xdf;" horiz-adv-x="565" d="M283 110q67 -6 88.5 25t21.5 101v42q0 38 -1 58.5t-7 45t-17.5 36.5t-32.5 20t-52 8v115q39 0 52.5 10t13.5 28v7q0 39 -65 39h-16q-37 0 -49 -21t-12 -63v-561h-132v446h-53v115h53q0 107 40.5 152t156.5 45h12q199 0 199 -134v-10q0 -50 -21.5 -75.5t-69.5 -32.5 q133 -22 133 -190v-99q0 -56 -9.5 -96.5t-34 -75.5t-74.5 -47.5t-124 -1.5v114z" />
<glyph unicode="&#xe0;" horiz-adv-x="520" d="M208 -9q-79 0 -123.5 51.5t-44.5 156.5v163q0 105 45 156t123 51q54 0 89 -24t45 -46v63h124v-562h-124v62q-9 -22 -44.5 -46.5t-89.5 -24.5zM107 788h142l64 -157h-102zM173 209q0 -101 81 -101q37 0 58.5 25.5t21.5 75.5v145q0 49 -22 73.5t-58 24.5q-81 0 -81 -100 v-143z" />
<glyph unicode="&#xe1;" horiz-adv-x="520" d="M208 -9q-79 0 -123.5 51.5t-44.5 156.5v163q0 105 45 156t123 51q54 0 89 -24t45 -46v63h124v-562h-124v62q-9 -22 -44.5 -46.5t-89.5 -24.5zM173 209q0 -101 81 -101q37 0 58.5 25.5t21.5 75.5v145q0 49 -22 73.5t-58 24.5q-81 0 -81 -100v-143zM183 632l64 157h142 l-105 -157h-101z" />
<glyph unicode="&#xe2;" horiz-adv-x="520" d="M208 -9q-79 0 -123.5 51.5t-44.5 156.5v163q0 105 45 156t123 51q54 0 89 -24t45 -46v63h124v-562h-124v62q-9 -22 -44.5 -46.5t-89.5 -24.5zM94 632l103 155h128l103 -155h-103l-64 75l-65 -75h-102zM173 209q0 -101 81 -101q37 0 58.5 25.5t21.5 75.5v145 q0 49 -22 73.5t-58 24.5q-81 0 -81 -100v-143z" />
<glyph unicode="&#xe3;" horiz-adv-x="520" d="M208 -9q-79 0 -123.5 51.5t-44.5 156.5v163q0 105 45 156t123 51q54 0 89 -24t45 -46v63h124v-562h-124v62q-9 -22 -44.5 -46.5t-89.5 -24.5zM94 625v105q46 27 91 27q27 0 76 -14t75 -14q49 0 94 29v-104q-44 -31 -89 -31q-27 0 -75.5 16.5t-77.5 16.5q-47 0 -94 -31z M173 209q0 -101 81 -101q37 0 58.5 25.5t21.5 75.5v145q0 49 -22 73.5t-58 24.5q-81 0 -81 -100v-143z" />
<glyph unicode="&#xe4;" horiz-adv-x="520" d="M208 -9q-79 0 -123.5 51.5t-44.5 156.5v163q0 105 45 156t123 51q54 0 89 -24t45 -46v63h124v-562h-124v62q-9 -22 -44.5 -46.5t-89.5 -24.5zM112 688q0 25 18 43t43 18t43 -18t18 -43q0 -26 -18 -43.5t-43 -17.5t-43 17.5t-18 43.5zM173 209q0 -101 81 -101 q37 0 58.5 25.5t21.5 75.5v145q0 49 -22 73.5t-58 24.5q-81 0 -81 -100v-143zM296 688q0 25 17.5 43t42.5 18q26 0 44 -18t18 -43q0 -26 -18 -43.5t-44 -17.5q-25 0 -42.5 18t-17.5 43z" />
<glyph unicode="&#xe5;" horiz-adv-x="520" d="M208 -9q-79 0 -123.5 51.5t-44.5 156.5v163q0 105 45 156t123 51q54 0 89 -24t45 -46v63h124v-562h-124v62q-9 -22 -44.5 -46.5t-89.5 -24.5zM173 209q0 -101 81 -101q37 0 58.5 25.5t21.5 75.5v145q0 49 -22 73.5t-58 24.5q-81 0 -81 -100v-143zM180 718q0 38 26.5 64 t64.5 26t64.5 -26.5t26.5 -63.5q0 -38 -27 -64.5t-64 -26.5q-38 0 -64.5 26.5t-26.5 64.5zM242 719q0 -12 9 -20.5t21 -8.5q11 0 19 8.5t8 20.5t-8 20t-19 8q-12 0 -21 -8t-9 -20z" />
<glyph unicode="&#xe6;" horiz-adv-x="795" d="M208 -9q-79 0 -123.5 51.5t-44.5 156.5v163q0 105 45 156t123 51q54 0 89 -24t45 -46v63h124v-63q10 22 44 46t87 24q76 0 120 -51t44 -156v-120h-294v-61q0 -36 24.5 -60t56.5 -24q35 0 58 19t23 52v12h132v-4q0 -91 -42 -136.5t-119 -45.5q-54 0 -89.5 24.5t-44.5 46.5 v-65h-124v62q-9 -22 -44.5 -46.5t-89.5 -24.5zM173 209q0 -101 81 -101q37 0 58.5 25.5t21.5 75.5v145q0 49 -22 73.5t-58 24.5q-81 0 -81 -100v-143zM467 334h162v27q0 100 -81 100q-37 0 -59 -21.5t-22 -64.5v-41z" />
<glyph unicode="&#xe7;" horiz-adv-x="500" d="M112 -171l90 166q-78 14 -120 70.5t-42 144.5v136q0 104 56.5 163.5t157.5 59.5q103 0 157.5 -59.5t54.5 -167.5v-4h-132v3q0 109 -80 109q-82 0 -82 -97v-132q0 -113 82 -113q36 0 58 26.5t22 79.5v4h132v-4q0 -96 -45 -154t-130 -68l-37 -163h-142z" />
<glyph unicode="&#xe8;" horiz-adv-x="500" d="M254 -10q-101 0 -157.5 59t-56.5 161v137q0 103 56.5 162.5t157.5 59.5q100 0 156 -57t56 -160v-110h-294v-61q0 -36 24.5 -60t57.5 -24q34 0 57 19t23 52v12h132v-4q0 -80 -57.5 -133t-154.5 -53zM94 789h142l64 -157h-102zM172 334h162v27q0 100 -80 100 q-37 0 -59.5 -21.5t-22.5 -64.5v-41z" />
<glyph unicode="&#xe9;" horiz-adv-x="500" d="M254 -10q-101 0 -157.5 59t-56.5 161v137q0 103 56.5 162.5t157.5 59.5q100 0 156 -57t56 -160v-110h-294v-61q0 -36 24.5 -60t57.5 -24q34 0 57 19t23 52v12h132v-4q0 -80 -57.5 -133t-154.5 -53zM172 334h162v27q0 100 -80 100q-37 0 -59.5 -21.5t-22.5 -64.5v-41z M187 632l64 157h142l-105 -157h-101z" />
<glyph unicode="&#xea;" horiz-adv-x="500" d="M254 -10q-101 0 -157.5 59t-56.5 161v137q0 103 56.5 162.5t157.5 59.5q100 0 156 -57t56 -160v-110h-294v-61q0 -36 24.5 -60t57.5 -24q34 0 57 19t23 52v12h132v-4q0 -80 -57.5 -133t-154.5 -53zM84 631l103 155h128l103 -155h-103l-64 75l-65 -75h-102zM172 334h162 v27q0 100 -80 100q-37 0 -59.5 -21.5t-22.5 -64.5v-41z" />
<glyph unicode="&#xeb;" horiz-adv-x="500" d="M254 -10q-101 0 -157.5 59t-56.5 161v137q0 103 56.5 162.5t157.5 59.5q100 0 156 -57t56 -160v-110h-294v-61q0 -36 24.5 -60t57.5 -24q34 0 57 19t23 52v12h132v-4q0 -80 -57.5 -133t-154.5 -53zM103 689q0 25 18 43t43 18t43 -18t18 -43t-17.5 -43t-43.5 -18t-43.5 18 t-17.5 43zM172 334h162v27q0 100 -80 100q-37 0 -59.5 -21.5t-22.5 -64.5v-41zM287 689q0 25 17.5 43t42.5 18q26 0 44 -18t18 -43q0 -26 -18 -43.5t-44 -17.5q-25 0 -42.5 18t-17.5 43z" />
<glyph unicode="&#xec;" horiz-adv-x="248" d="M59 0v562h131v-562h-131zM-21 789h142l64 -157h-102z" />
<glyph unicode="&#xed;" horiz-adv-x="252" d="M59 0v562h131v-562h-131zM61 632l64 157h142l-105 -157h-101z" />
<glyph unicode="&#xee;" horiz-adv-x="249" d="M59 0v562h131v-562h-131zM-43 633l103 155h128l103 -155h-103l-64 75l-65 -75h-102z" />
<glyph unicode="&#xef;" horiz-adv-x="244" d="M59 0v562h131v-562h-131zM-29 689q0 25 18 43t43 18t43 -18t18 -43t-17.5 -43t-43.5 -18t-43.5 18t-17.5 43zM155 689q0 25 17.5 43t42.5 18q26 0 44 -18t18 -43q0 -26 -18 -43.5t-44 -17.5q-25 0 -42.5 18t-17.5 43z" />
<glyph unicode="&#xf0;" horiz-adv-x="503" d="M250 -5q-95 0 -154 59.5t-59 162.5v129q0 97 52.5 158.5t144.5 61.5q26 0 49 -4l-31 58h-91v50h66l-47 89h130l43 -89h87v-50h-61l36 -72q49 -98 49 -205v-126q0 -103 -58.5 -162.5t-155.5 -59.5zM172 194q0 -43 22.5 -65t59.5 -22q35 0 57.5 22t22.5 65v170 q0 43 -22.5 64.5t-57.5 21.5q-37 0 -59.5 -21.5t-22.5 -64.5v-170z" />
<glyph unicode="&#xf1;" horiz-adv-x="525" d="M56 0v562h123v-64q9 21 44.5 45.5t89.5 24.5q79 0 124 -51t45 -155v-362h-133v352q0 99 -81 99q-41 0 -61 -24t-20 -77v-350h-131zM97 630v105q46 27 91 27q27 0 76 -14t75 -14q49 0 94 29v-104q-44 -31 -89 -31q-27 0 -75.5 16.5t-77.5 16.5q-47 0 -94 -31z" />
<glyph unicode="&#xf2;" horiz-adv-x="505" d="M253 -10q-101 0 -157 59.5t-56 163.5v135q0 101 56 160.5t157 59.5q99 0 156 -59.5t57 -160.5v-135q0 -104 -56.5 -163.5t-156.5 -59.5zM92 781h142l64 -157h-102zM172 194q0 -43 22.5 -65t58.5 -22q35 0 58 22t23 65v170q0 43 -22.5 64.5t-58.5 21.5q-37 0 -59 -21.5 t-22 -64.5v-170z" />
<glyph unicode="&#xf3;" horiz-adv-x="505" d="M253 -10q-101 0 -157 59.5t-56 163.5v135q0 101 56 160.5t157 59.5q99 0 156 -59.5t57 -160.5v-135q0 -104 -56.5 -163.5t-156.5 -59.5zM172 194q0 -43 22.5 -65t58.5 -22q35 0 58 22t23 65v170q0 43 -22.5 64.5t-58.5 21.5q-37 0 -59 -21.5t-22 -64.5v-170zM194 631 l64 157h142l-105 -157h-101z" />
<glyph unicode="&#xf4;" horiz-adv-x="505" d="M253 -10q-101 0 -157 59.5t-56 163.5v135q0 101 56 160.5t157 59.5q99 0 156 -59.5t57 -160.5v-135q0 -104 -56.5 -163.5t-156.5 -59.5zM87 631l103 155h128l103 -155h-103l-64 75l-65 -75h-102zM172 194q0 -43 22.5 -65t58.5 -22q35 0 58 22t23 65v170q0 43 -22.5 64.5 t-58.5 21.5q-37 0 -59 -21.5t-22 -64.5v-170z" />
<glyph unicode="&#xf5;" horiz-adv-x="505" d="M253 -10q-101 0 -157 59.5t-56 163.5v135q0 101 56 160.5t157 59.5q99 0 156 -59.5t57 -160.5v-135q0 -104 -56.5 -163.5t-156.5 -59.5zM86 626v105q46 27 91 27q27 0 76 -14t75 -14q49 0 94 29v-104q-44 -31 -89 -31q-27 0 -75.5 16.5t-77.5 16.5q-47 0 -94 -31z M172 194q0 -43 22.5 -65t58.5 -22q35 0 58 22t23 65v170q0 43 -22.5 64.5t-58.5 21.5q-37 0 -59 -21.5t-22 -64.5v-170z" />
<glyph unicode="&#xf6;" horiz-adv-x="505" d="M253 -10q-101 0 -157 59.5t-56 163.5v135q0 101 56 160.5t157 59.5q99 0 156 -59.5t57 -160.5v-135q0 -104 -56.5 -163.5t-156.5 -59.5zM100 687q0 25 18 43t43 18t43 -18t18 -43t-18 -43t-43 -18t-43 18t-18 43zM172 194q0 -43 22.5 -65t58.5 -22q35 0 58 22t23 65v170 q0 43 -22.5 64.5t-58.5 21.5q-37 0 -59 -21.5t-22 -64.5v-170zM284 687q0 25 17.5 43t42.5 18q26 0 44 -18t18 -43q0 -26 -18 -43.5t-44 -17.5q-25 0 -42.5 18t-17.5 43z" />
<glyph unicode="&#xf7;" horiz-adv-x="513" d="M45 294v119h401v-119h-401zM170 177q0 30 21 51t51 21t51.5 -21t21.5 -51q0 -29 -21.5 -50.5t-51.5 -21.5t-51 21.5t-21 50.5zM170 531q0 30 21 51t51 21t51.5 -21t21.5 -51q0 -29 -21.5 -50.5t-51.5 -21.5t-51 21.5t-21 50.5z" />
<glyph unicode="&#xf8;" horiz-adv-x="505" d="M115 -78l29 91q-105 53 -105 200v135q0 101 56 160.5t157 59.5q35 0 63 -7l24 78h51l-30 -95q105 -55 105 -196v-135q0 -104 -56.5 -163.5t-156.5 -59.5q-32 0 -61 6l-23 -74h-53zM171 194q0 -31 13 -52l95 304q-12 4 -27 4q-37 0 -59 -21.5t-22 -64.5v-170zM226 110 q12 -3 26 -3q35 0 58 22t23 65v170q0 32 -12 51z" />
<glyph unicode="&#xf9;" horiz-adv-x="515" d="M259 -10q-101 0 -157.5 58.5t-56.5 158.5v355h132v-374q0 -40 24.5 -60.5t57.5 -20.5q29 0 54.5 20.5t25.5 60.5v374h133v-355q0 -100 -57.5 -158.5t-155.5 -58.5zM106 780h142l64 -157h-102z" />
<glyph unicode="&#xfa;" horiz-adv-x="515" d="M259 -10q-101 0 -157.5 58.5t-56.5 158.5v355h132v-374q0 -40 24.5 -60.5t57.5 -20.5q29 0 54.5 20.5t25.5 60.5v374h133v-355q0 -100 -57.5 -158.5t-155.5 -58.5zM208 633l64 157h142l-105 -157h-101z" />
<glyph unicode="&#xfb;" horiz-adv-x="515" d="M259 -10q-101 0 -157.5 58.5t-56.5 158.5v355h132v-374q0 -40 24.5 -60.5t57.5 -20.5q29 0 54.5 20.5t25.5 60.5v374h133v-355q0 -100 -57.5 -158.5t-155.5 -58.5zM92 630l103 155h128l103 -155h-103l-64 75l-65 -75h-102z" />
<glyph unicode="&#xfc;" horiz-adv-x="515" d="M259 -10q-101 0 -157.5 58.5t-56.5 158.5v355h132v-374q0 -40 24.5 -60.5t57.5 -20.5q29 0 54.5 20.5t25.5 60.5v374h133v-355q0 -100 -57.5 -158.5t-155.5 -58.5zM106 689q0 25 18 43t43 18t43 -18t18 -43t-18 -43t-43 -18t-43 18t-18 43zM290 689q0 25 17.5 43t42.5 18 q26 0 44 -18t18 -43q0 -26 -18 -43.5t-44 -17.5q-25 0 -42.5 18t-17.5 43z" />
<glyph unicode="&#xfd;" horiz-adv-x="489" d="M118 -192l61 193l-174 561h141l100 -374l100 374h141l-235 -754h-134zM197 632l64 157h142l-105 -157h-101z" />
<glyph unicode="&#xfe;" horiz-adv-x="525" d="M56 -197v952h131v-257q6 13 17.5 27t41.5 29t67 15q169 0 169 -224v-146q0 -104 -45 -155.5t-124 -51.5q-54 0 -85.5 22.5t-40.5 44.5v-256h-131zM187 209q0 -50 21.5 -75t59.5 -25t59.5 25t21.5 75v142q0 50 -22 75.5t-59 25.5t-59 -25t-22 -74v-144z" />
<glyph unicode="&#xff;" horiz-adv-x="489" d="M118 -192l61 193l-174 561h141l100 -374l100 374h141l-235 -754h-134zM93 686q0 25 18 43t43 18t43 -18t18 -43q0 -26 -17.5 -43.5t-43.5 -17.5t-43.5 17.5t-17.5 43.5zM277 686q0 25 17.5 43t42.5 18q26 0 44 -18t18 -43q0 -26 -18 -43.5t-44 -17.5q-25 0 -42.5 18 t-17.5 43z" />
<glyph unicode="&#x13f;" horiz-adv-x="462" d="M66 0v705h138v-573h234v-132h-372zM268 351q0 25 18 43t43 18t43 -18t18 -43q0 -24 -18 -42t-43 -18t-43 18t-18 42z" />
<glyph unicode="&#x140;" horiz-adv-x="343" d="M61 0v755h132v-755h-132zM231 352q0 25 18 43t43 18t43 -18t18 -43t-18 -42.5t-43 -17.5t-43 17.5t-18 42.5z" />
<glyph unicode="&#x152;" horiz-adv-x="819" d="M262 -4q-100 0 -158.5 65t-58.5 175v246q0 99 56.5 164t146.5 65q93 0 133 -57v50l397 1v-133h-259v-160h192v-120h-192v-160h259v-132l-397 1v44q-50 -49 -119 -49zM184 228q0 -57 28.5 -82t69.5 -25q40 0 69.5 25t29.5 82v253q0 107 -99 107q-42 0 -70 -25.5t-28 -81.5 v-253z" />
<glyph unicode="&#x153;" horiz-adv-x="797" d="M248 -10q-101 0 -155 59t-54 164v135q0 102 54.5 161t154.5 59q102 0 150 -61q48 62 153 62q100 0 154.5 -56.5t54.5 -160.5v-110h-294v-61q0 -36 24.5 -60t56.5 -24q35 0 58 19t23 52v12h132v-4q0 -80 -56 -133t-153 -53q-104 0 -152 61q-47 -61 -151 -61zM171 194 q0 -43 22.5 -65t58.5 -22q35 0 58 22t23 65v170q0 43 -22.5 64.5t-58.5 21.5q-37 0 -59 -21.5t-22 -64.5v-170zM466 334h162v27q0 100 -81 100q-37 0 -59 -21.5t-22 -64.5v-41z" />
<glyph unicode="&#x178;" horiz-adv-x="545" d="M204 0v254l-199 451h144l125 -298l126 298h143l-201 -451v-254h-138zM121 838q0 25 18 43t43 18t43 -18t18 -43q0 -26 -17.5 -43.5t-43.5 -17.5t-43.5 17.5t-17.5 43.5zM305 838q0 25 17.5 43t42.5 18q26 0 44 -18t18 -43q0 -26 -18 -43.5t-44 -17.5q-25 0 -42.5 18 t-17.5 43z" />
<glyph unicode="&#x2c6;" d="M115 582l103 155h128l103 -155h-103l-64 75l-65 -75h-102z" />
<glyph unicode="&#x2dc;" d="M113 683q46 27 91 27q27 0 76 -14t75 -14q49 0 94 29v-104q-44 -31 -89 -31q-27 0 -75.5 16.5t-77.5 16.5q-47 0 -94 -31v105z" />
<glyph unicode="&#x2000;" horiz-adv-x="479" />
<glyph unicode="&#x2001;" horiz-adv-x="958" />
<glyph unicode="&#x2002;" horiz-adv-x="479" />
<glyph unicode="&#x2003;" horiz-adv-x="958" />
<glyph unicode="&#x2004;" horiz-adv-x="319" />
<glyph unicode="&#x2005;" horiz-adv-x="239" />
<glyph unicode="&#x2006;" horiz-adv-x="159" />
<glyph unicode="&#x2007;" horiz-adv-x="159" />
<glyph unicode="&#x2008;" horiz-adv-x="119" />
<glyph unicode="&#x2009;" horiz-adv-x="191" />
<glyph unicode="&#x200a;" horiz-adv-x="53" />
<glyph unicode="&#x2010;" horiz-adv-x="340" d="M35 233v103h268v-103h-268z" />
<glyph unicode="&#x2011;" horiz-adv-x="340" d="M35 233v103h268v-103h-268z" />
<glyph unicode="&#x2012;" horiz-adv-x="340" d="M35 233v103h268v-103h-268z" />
<glyph unicode="&#x2013;" horiz-adv-x="503" d="M35 233v103h433v-103h-433z" />
<glyph unicode="&#x2014;" horiz-adv-x="728" d="M35 233v103h658v-103h-658z" />
<glyph unicode="&#x2018;" horiz-adv-x="285" d="M25 375l133 331h102l-92 -331h-143z" />
<glyph unicode="&#x2019;" horiz-adv-x="284" d="M25 375l91 331h143l-133 -331h-101z" />
<glyph unicode="&#x201a;" horiz-adv-x="280" d="M-5 -128l91 323h142l-132 -323h-101z" />
<glyph unicode="&#x201c;" horiz-adv-x="494" d="M234 375l133 331h102l-92 -331h-143zM25 375l133 331h102l-92 -331h-143z" />
<glyph unicode="&#x201d;" horiz-adv-x="493" d="M234 375l91 331h143l-133 -331h-101zM25 375l91 331h143l-133 -331h-101z" />
<glyph unicode="&#x201e;" horiz-adv-x="473" d="M209 -131l91 323h142l-132 -323h-101zM0 -131l91 323h142l-132 -323h-101z" />
<glyph unicode="&#x2022;" horiz-adv-x="480" d="M240 88q-93 0 -144 54t-51 150v6q0 93 51.5 147.5t143.5 54.5q91 0 142.5 -54.5t51.5 -147.5v-6q0 -95 -51.5 -149.5t-142.5 -54.5z" />
<glyph unicode="&#x2026;" horiz-adv-x="718" d="M597 -8q-34 0 -57 23t-23 56t23 56.5t57 23.5q33 0 57 -23.5t24 -56.5t-24 -56t-57 -23zM40 71q0 33 23.5 56.5t56.5 23.5q34 0 57 -23.5t23 -56.5t-23 -56t-57 -23q-33 0 -56.5 23t-23.5 56zM279 71q0 33 23 56.5t57 23.5q33 0 56.5 -23.5t23.5 -56.5t-23.5 -56 t-56.5 -23q-34 0 -57 23t-23 56z" />
<glyph unicode="&#x202f;" horiz-adv-x="191" />
<glyph unicode="&#x2039;" horiz-adv-x="303" d="M167 83l-132 203l132 203h101l-91 -203l91 -203h-101z" />
<glyph unicode="&#x203a;" horiz-adv-x="303" d="M35 83l91 203l-91 203h101l132 -203l-132 -203h-101z" />
<glyph unicode="&#x205f;" horiz-adv-x="239" />
<glyph unicode="&#x20ac;" horiz-adv-x="590" d="M322 -14q-105 0 -171 68t-66 175v41h-60v51h60v58h-60v51h60v44q0 108 66 176t171 68q114 0 175 -73t61 -195v-7h-139v6q0 137 -97 137q-42 0 -70.5 -26.5t-28.5 -81.5v-48h100v-51h-100v-58h100v-51h-100v-45q0 -52 25 -80.5t73 -28.5q98 0 98 132v8h139v-8 q0 -118 -61.5 -190t-174.5 -72z" />
<glyph unicode="&#x2122;" horiz-adv-x="738" d="M325 342v363h82l91 -208l91 208h81v-363h-82v183l-63 -138h-55l-62 137v-182h-83zM35 627v78h243v-78h-81v-285h-82v285h-80z" />
<glyph unicode="&#x25fc;" horiz-adv-x="560" d="M0 560h560v-560h-560v560z" />
<glyph horiz-adv-x="250" d="M59 0v562h131v-562h-131zM47 704q0 33 23.5 56.5t56.5 23.5q34 0 57 -23.5t23 -56.5t-23 -56t-57 -23q-33 0 -56.5 23t-23.5 56z" />
<glyph horiz-adv-x="509" d="M196 -8q-70 0 -118.5 39.5t-48.5 122.5q0 59 31.5 96t76 52t89 25.5t76 27t31.5 45.5q0 30 -21 46t-56 16q-37 0 -62.5 -20.5t-25.5 -64.5h-127q0 195 217 195q98 0 153 -48.5t55 -149.5v-374h-124v66q-3 -8 -12.5 -18.5t-26.5 -24t-45.5 -22.5t-61.5 -9zM161 164 q0 -63 76 -63q49 0 73.5 30t24.5 76l-1 69q-21 -19 -67 -32t-76 -29.5t-30 -50.5z" />
<glyph horiz-adv-x="509" d="M183 632l64 157h142l-105 -157h-101zM29 154q0 59 31.5 96t76 52t89 25.5t76 27t31.5 45.5q0 30 -21 46t-56 16q-37 0 -62.5 -20.5t-25.5 -64.5h-127q0 195 217 195q98 0 153 -48.5t55 -149.5v-374h-124v66q-3 -8 -12.5 -18.5t-26.5 -24t-45.5 -22.5t-61.5 -9 q-70 0 -118.5 39.5t-48.5 122.5zM161 164q0 -63 76 -63q49 0 73.5 30t24.5 76l-1 69q-21 -19 -67 -32t-76 -29.5t-30 -50.5z" />
<glyph horiz-adv-x="509" d="M94 632l103 155h128l103 -155h-103l-64 75l-65 -75h-102zM29 154q0 59 31.5 96t76 52t89 25.5t76 27t31.5 45.5q0 30 -21 46t-56 16q-37 0 -62.5 -20.5t-25.5 -64.5h-127q0 195 217 195q98 0 153 -48.5t55 -149.5v-374h-124v66q-3 -8 -12.5 -18.5t-26.5 -24t-45.5 -22.5 t-61.5 -9q-70 0 -118.5 39.5t-48.5 122.5zM161 164q0 -63 76 -63q49 0 73.5 30t24.5 76l-1 69q-21 -19 -67 -32t-76 -29.5t-30 -50.5z" />
<glyph horiz-adv-x="509" d="M356 627q-25 0 -42.5 18t-17.5 43t17.5 43t42.5 18q26 0 44 -18t18 -43q0 -26 -18 -43.5t-44 -17.5zM29 154q0 59 31.5 96t76 52t89 25.5t76 27t31.5 45.5q0 30 -21 46t-56 16q-37 0 -62.5 -20.5t-25.5 -64.5h-127q0 195 217 195q98 0 153 -48.5t55 -149.5v-374h-124v66 q-3 -8 -12.5 -18.5t-26.5 -24t-45.5 -22.5t-61.5 -9q-70 0 -118.5 39.5t-48.5 122.5zM112 688q0 25 18 43t43 18t43 -18t18 -43q0 -26 -18 -43.5t-43 -17.5t-43 17.5t-18 43.5zM161 164q0 -63 76 -63q49 0 73.5 30t24.5 76l-1 69q-21 -19 -67 -32t-76 -29.5t-30 -50.5z" />
<glyph horiz-adv-x="509" d="M211 631l-104 157h142l64 -157h-102zM29 154q0 59 31.5 96t76 52t89 25.5t76 27t31.5 45.5q0 30 -21 46t-56 16q-37 0 -62.5 -20.5t-25.5 -64.5h-127q0 195 217 195q98 0 153 -48.5t55 -149.5v-374h-124v66q-3 -8 -12.5 -18.5t-26.5 -24t-45.5 -22.5t-61.5 -9 q-70 0 -118.5 39.5t-48.5 122.5zM161 164q0 -63 76 -63q49 0 73.5 30t24.5 76l-1 69q-21 -19 -67 -32t-76 -29.5t-30 -50.5z" />
<glyph horiz-adv-x="509" d="M261 627q-38 0 -64.5 26.5t-26.5 64.5t26.5 64t64.5 26t64.5 -26.5t26.5 -63.5q0 -38 -27 -64.5t-64 -26.5zM29 154q0 59 31.5 96t76 52t89 25.5t76 27t31.5 45.5q0 30 -21 46t-56 16q-37 0 -62.5 -20.5t-25.5 -64.5h-127q0 195 217 195q98 0 153 -48.5t55 -149.5v-374 h-124v66q-3 -8 -12.5 -18.5t-26.5 -24t-45.5 -22.5t-61.5 -9q-70 0 -118.5 39.5t-48.5 122.5zM161 164q0 -63 76 -63q49 0 73.5 30t24.5 76l-1 69q-21 -19 -67 -32t-76 -29.5t-30 -50.5zM232 719q0 -12 9 -20.5t21 -8.5q11 0 19 8.5t8 20.5t-8 20t-19 8q-12 0 -21 -8t-9 -20 z" />
<glyph horiz-adv-x="509" d="M196 -8q-70 0 -118.5 39.5t-48.5 122.5q0 59 31.5 96t76 52t89 25.5t76 27t31.5 45.5q0 30 -21 46t-56 16q-37 0 -62.5 -20.5t-25.5 -64.5h-127q0 195 217 195q98 0 153 -48.5t55 -149.5v-374h-124v66q-3 -8 -12.5 -18.5t-26.5 -24t-45.5 -22.5t-61.5 -9zM94 623v105 q46 27 91 27q27 0 76 -14t75 -14q49 0 94 29v-104q-44 -31 -89 -31q-27 0 -75.5 16.5t-77.5 16.5q-47 0 -94 -31zM161 164q0 -63 76 -63q49 0 73.5 30t24.5 76l-1 69q-21 -19 -67 -32t-76 -29.5t-30 -50.5z" />
<glyph horiz-adv-x="805" d="M224 -8q-74 0 -129 40t-55 122q0 59 31.5 96t76 52t89 25.5t76 27t31.5 45.5q0 30 -21 46t-56 16q-37 0 -62.5 -20.5t-25.5 -64.5h-127q0 195 196 195q125 0 170 -88q50 85 161 85q90 0 141 -57t51 -160v-110h-294v-61q0 -36 24.5 -60t57.5 -24q34 0 57 19t23 52v12h132 v-4q0 -80 -52 -133t-140 -53q-119 0 -168 97q-53 -95 -187 -95zM172 164q0 -63 76 -63q49 0 73.5 30t24.5 76l-1 69q-21 -19 -67 -32t-76 -29.5t-30 -50.5zM477 334h162v27q0 100 -80 100q-37 0 -59.5 -21.5t-22.5 -64.5v-41z" />
<glyph horiz-adv-x="590" d="M295 -10q-105 0 -171 68t-66 175v240q0 108 66 176.5t171 68.5q104 0 170.5 -68.5t66.5 -176.5v-240q0 -107 -66.5 -175t-170.5 -68zM197 240q0 -118 98 -118q44 0 71.5 27.5t27.5 89.5v228q0 118 -99 118q-98 0 -98 -118v-227z" />
<glyph horiz-adv-x="590" d="M252 524q-43 -20 -117 -20v133q69 0 98.5 14.5t29.5 53.5h128v-573h95v-132h-366v132h132v392z" />
<glyph horiz-adv-x="590" d="M64 106q0 39 11.5 72.5t27 56t43 44.5t48 34t53.5 29q40 21 57 31t43 30t36.5 42t10.5 50q0 43 -29 68t-68 25q-42 0 -69.5 -28t-27.5 -77h-136q0 106 65 170.5t167 64.5q104 0 169 -61.5t65 -160.5q0 -24 -3.5 -46t-14 -41t-18 -33.5t-26 -30.5t-27.5 -25t-33.5 -23.5 t-31.5 -19t-35 -19t-32 -16.5q-52 -28 -78.5 -52t-27.5 -58h318v-132h-457v106z" />
<glyph horiz-adv-x="590" d="M295 -11q-108 0 -175 66t-67 178l139 -1q0 -58 30 -85t77 -27q44 0 72 22.5t28 69.5q0 84 -109 84h-78v118h67q110 0 110 88q0 45 -27.5 67.5t-70.5 22.5q-47 0 -71.5 -29t-24.5 -80h-136q0 106 64 170.5t169 64.5q102 0 167.5 -57t65.5 -143q0 -58 -25.5 -98t-70.5 -58 q45 -13 76.5 -51t31.5 -98q0 -101 -67 -162.5t-175 -61.5z" />
<glyph horiz-adv-x="590" d="M342 0v153h-298v126l299 426h133v-426h76v-126h-76v-153h-134zM172 279h170v245z" />
<glyph horiz-adv-x="590" d="M294 -11q-105 0 -171 68t-66 175h138q0 -109 102 -109q41 0 68.5 30.5t27.5 75.5v29q0 42 -27 70t-73 28q-60 0 -92 -57l-132 29l67 377h360v-132h-248l-26 -139q11 13 40 25t67 12q93 0 147.5 -54t54.5 -159v-31q0 -107 -66 -172.5t-171 -65.5z" />
<glyph horiz-adv-x="590" d="M296 -11q-107 0 -172 67t-65 175v32q0 102 58 212l122 230h149l-119 -215q21 4 47 4q102 0 159 -59t57 -164v-40q0 -108 -65.5 -175t-170.5 -67zM198 240q0 -67 25 -93t73 -26q98 0 98 119v36q0 106 -98 106t-98 -106v-36z" />
<glyph horiz-adv-x="590" d="M162 0l186 572h-252v133h428l-224 -705h-138z" />
<glyph horiz-adv-x="590" d="M295 -6q-108 0 -175 54.5t-67 146.5q0 116 100 157q-88 46 -88 163q0 90 63.5 143t166.5 53t166.5 -53t63.5 -144q0 -118 -87 -162q99 -40 99 -157q0 -92 -67.5 -146.5t-174.5 -54.5zM195 209q0 -90 100 -90q101 0 101 94q0 89 -87 89h-32q-82 0 -82 -93zM200 497 q0 -51 24.5 -70t70.5 -19h2q94 0 94 87q0 91 -96 91q-95 0 -95 -89z" />
<glyph horiz-adv-x="590" d="M321 215q-21 -4 -50 -4q-100 0 -156 59.5t-56 163.5v39q0 109 65.5 176t171.5 67t171 -67t65 -176v-34q0 -102 -57 -207l-123 -232h-148zM198 429q0 -105 98 -105t98 105v45q0 110 -98 110t-98 -110v-45z" />
</font>
</defs>
</svg>
